watch

Vatos Locos 2011

Vatos Locos 2011 Dvdrip Dual latino-ingles [FS-WU-UL] Titulo: VATOS LOCOS Director: Damian Chapa Writer: Damian Chapa Stars: Damian Chapa, Gabriel Tang and Ricco Chapa Country: USA Language: English | Spanish Filming Locations: Los Angeles, California, USA Vatos Locos “es también el título de Chapa de la nueva película de Damián, que está programado para ser lanzado el 05/05/2011. La película está protagonizada por Damian Chapa, que también fue” Miklo “en la película” Blood In Blood Out “. La película es producido por la producción de Damian Chapa de la compañía Amadeus Pictures. la película no es una extensión ni una secuela del gran éxito de culto “Blood In Blood Out”. el título y el actor Damian Chapa son las únicas similitudes entre los dos. Video ID : 224 (0xE0) Format : MPEG Video Format version : Version 1 Format settings, BVOP : Yes Format settings, Matrix : Default Duration : 1h 16mn Bit rate mode : Constant Bit rate : 1 284 Kbps Width : 352 pixels Height : 240 pixels Display aspect ratio : 4:3 Frame rate : 29.970 fps Standard : NTSC Resolution : 8 bits Scan type : Progressive Bits/(Pixel*Frame) : 0.507 Stream size : 696 MiB (89%) Audio ID : 192 (0xC0) Format : MPEG Audio Format version : Version 1 Format profile : Layer 2 Duration : 1h 16mn Bit rate mode : Constant Bit rate : 128 Kbps Channel(s) : 2 channels Sampling rate : 44.1 KHz Stream size : 69.9 MiB (9%) LINK INTERCAMBIABLES DE 400MB this part of youre post is hidden Código:

Vatos Locos 2011 Dvdrip Dual latino-ingles [FS-WU-UL] Titulo: VATOS LOCOS Director: Damian Chapa Writer: Damian Chapa Stars: Damian Chapa, Gabriel Tang and Ricco Chapa Country: USA Language: English | Spanish Filming Locations: Los Angeles, California, USA Vatos Locos “es también el título de Chapa de la nueva película de Damián, que está programado para ser lanzado el 05/05/2011. La película está protagonizada por Damian Chapa, que también fue” Miklo “en la película” Blood In Blood Out “. La película es producido por la producción de Damian Chapa de la compañía Amadeus Pictures. la película no es una extensión ni una secuela del gran éxito de culto “Blood In Blood Out”. el título y el actor Damian Chapa son las únicas similitudes entre los dos. Video ID : 224 (0xE0) Format : MPEG Video Format version : Version 1 Format settings, BVOP : Yes Format settings, Matrix : Default Duration : 1h 16mn Bit rate mode : Constant Bit rate : 1 284 Kbps Width : 352 pixels Height : 240 pixels Display aspect ratio : 4:3 Frame rate : 29.970 fps Standard : NTSC Resolution : 8 bits Scan type : Progressive Bits/(Pixel*Frame) : 0.507 Stream size : 696 MiB (89%) Audio ID : 192 (0xC0) Format : MPEG Audio Format version : Version 1 Format profile : Layer 2 Duration : 1h 16mn Bit rate mode : Constant Bit rate : 128 Kbps Channel(s) : 2 channels Sampling rate : 44.1 KHz Stream size : 69.9 MiB (9%) LINK INTERCAMBIABLES DE 400MB this part of youre post is hidden Código:

    Post Your Comment

    Name: 

    Email: